Search the Community

Showing results for tags '1.4gb'.



More search options

  • Search By Tags

    Type tags separated by commas.
  • Search By Author

Content Type


Forums

  • General Lounge
    • Announcements and Updates
    • Member Introductions
    • Help & FAQ
    • Post your Movie Requests
    • Ethical Hacking Tricks and Internet Tricks
  • Free Online Movies
    • HollyWood Movies
    • BollyWood Movies
    • Malayalam Movies
    • Tamil Movies
    • Telugu Movies
    • Other Movies
  • TV Shows
    • English TV Shows
  • Ebooks
    • Tips ,Tutorials and E-Books
  • Adult Section
    • XXX HD Videos
    • XXX Adult Movies
    • XXX VIDEOS
    • XXX PICTURES
    • XXX STORIES
    • XXX Comics and Magazine
  • Music Database
    • English Albums
    • English Collections
  • Premium Accounts And Premium Browser
    • Premium Account And Premium Browser
    • Free 18+ Site Premium Accounts
  • Games & SoftWare
    • PC Games
    • PC Softwares
    • Mac OSX Applications
  • Mobile Zone
    • Android Applications
    • Android Games
    • Android Themes / Live Wallpapers
    • Iphone Applications
  • Gallery
    • Actress Gallery
    • HD Wallpapers
  • WebMaster Source
    • Vbulletin
    • Wordpress
    • Invision Power Board
    • PHP / HTML scripts

Categories

  • Records

Calendars

  • Community Calendar

Categories

  • Files

Categories

  • Videos
  • Movies

Found 9 results

  1. Screen short plot In medieval England, Merlin and King Arthur banish the evil enchantress Morgana and her son Mordred to the ends of the universe as Morgana vows revenge. In present day, Knights descendant Penn doesn’t take much stock in the legends of his supposed ancestors, even as the descendants meet in Thailand to practice fighting. But when Morgana and her son return to earth, armed with alien technology and hell-bent on destroying every last descendant of King Arthur and his knights, Penn must to come to terms with who he was born to be, and bring together the new Knights of the Round Table to save themselves and the earth from Morgana’s total vengeance. ✩team OR release✩ -www.Zippymoviez.me- King Arthur and the Knights of the Round Table( 2017)English- WEB DL- 1080p- 1.4GB Direct link Click download and after 5 seconds skip ads and download http://microify.com/1voB http://tinyium.com/2GLfh ttp://bluenik.com/1ql1
  2. Half Girlfriend (2017) Download Hindi Movie 1-3 Desi pDvD Rip - x264 AC3 1.4GB - Team HAVELI ~1/2 Girl Friend~ ~> 2017 <~ *1/3 Desi pDvD Rip - x264 - AC3 - Team HAVELI* SCREENSHOTS Download Links ~Extreme Seeding Started~ Please click 'Thanks' as a token of appreciation of our effort. . [ZippyMovieZ.ME] Half Girlfriend (2017) Hindi 1-3 Desi pDvD Rip - x264 AC3 1.4GB - Team HAVELI.torrent Magnet Link
  3. http://rg.to/file/d737e9e8a70a0ec2332c970f8379f90e/Premam_(2016)_Telugu_HDTV_-_720p_-_UNTOUCHED_-_AAC_-_1.4GB.mkv.html http://nitroflare.com/view/F5974DD1D6913D2/Premam_(2016)_Telugu_HDTV_-_720p_-_UNTOUCHED_-_AAC_-_1.4GB.mkv
  4. http://rapidgator.net/file/26ad3a3ab33715a7b43f5dbf016b9c8f/Motta_Shiva_Ketta_Shiva_(2017)_Tamil_WEB-HD_-_480p_-_AVC_-_AAC_-_1.4GB.mp4.html http://nitroflare.com/view/434BB2F39745F7E/Motta_Shiva_Ketta_Shiva_(2017)_Tamil_WEB-HD_-_480p_-_AVC_-_AAC_-_1.4GB.mp4
  5. Kahaani-2 2017 Download Hindi Movie x264 DvDRip DDS 5.1 Subs 1.4GB -DDR 1/3 DvDRip x264 Hindi DDS 5.1 English & Arabic Subs IMDB SCREENSHOTS SPECS Source: DVD9 @ DDI Format : Matroska File size : 1.46 GiB Duration : 1 h 50 min Overall bit rate : 1 888 kb/s Video Format : AVC Format profile : [email protected] Bit rate : 1 439 kb/s Width : 720 pixels Height : 304 pixels Display aspect ratio : 2.35:1 Frame rate : 23.976 (24000/1001) FPS Bit depth : 8 bits Stream size : 1.11 GiB (76%) Color primaries : BT.601 NTSC Audio #1 Format : DDS 5.1 @ 448 Kbps Channel(s) : 6 channels Stream size : 355 MiB (24%) Language : Hindi Chapters = YES A DDR Exclusive Encode ~Extreme Seeding Started~Please click 'Thanks' as a token of appreciation of our effort. . Kahaani-2 2017 Hindi x264 DvDRip DDS 5.1 Subs 1.4GB -DDR.torrent Magnet Link
  6. Directed by: G Ram Prasad Starring by: Naga Anvesh, Kruthika Jayakumar, Prakash Raj Genres: Action, Romance Country: India Language: Telugu Download Link :- http://linkshrink.net/73MVGg
  7. Irada (2017) Download Hindi Movie Desi pre DvD Rip - x264 1.4GB ZippyMovieZ SCREENSHOTS Download Links ~Extreme Seeding Started~ Please click 'Thanks' as a token of appreciation of our effort. . [ZippyMovieZ.US] Irada (2017) Hindi Desi pre DvD Rip - x264 1.4GB ZippyMovieZ.torrent Magnet Link
  8. Rings 2017 Download English Movie HD-TS x264 - 1.4GB -CPG Rings 2017 HD-TS x264-CPG http://www.imdb.com/title/tt0498381/ A young woman finds herself on the receiving end of a terrifying curse that threatens to take her life in 7 days. Director: F. Javier Gutiérrez Writers: David Loucka (screenplay), Jacob Estes (screenplay) Stars: Matilda Anna Ingrid Lutz, Alex Roe, Johnny Galecki Genres: Drama | Horror Country: USA Rings 2017 HD-TS x264-CPG -_iNFO_- Video: AVC 2000kbps 720x400 30fps Audio: MP3 2.0 192kbps Digital Language: English Source: V: Italian1080 tHX m8 Sample: included Encoder: CPG Notes: Pick italian source, fix the usual stuff and bright, rgb, colors, sharp etc.. then synced audio back to finish encode. Very good source indeed, has few autofocus points at start but they are not worse and they does not last forever. Day and dark scenes both are good for CAM. Enjoy P/S: we are looking for Suppliers of video/audio contact us at [email protected] Screens: ~Extreme Seeding Started~Please click 'Thanks' as a token of appreciation of our effort. . Rings 2017 English HD-TS x264 - 1.4GB -CPG.torrent Magnet Link
  9. Jolly LLB 2 (2017) Download Hindi Movie Desi pre DvD Rip - XviD - [13] 1.4GB - Team IcTv Exclusive ~~Jolly LLB 2 ~~ (2017) Desi pre DvD Rip - XviD - [1/3] - Team IcTv Exclusive SCREENSHOTS Download Links ~Extreme Seeding Started~ Please click 'Thanks' as a token of appreciation of our effort. . [ZippyMovieZ.CH] Jolly LLB 2 (2017) Hindi Desi pre DvD Rip - XviD - [13] 1.4GB - Team IcTv Exclusive.torrent Magnet Link