Search the Community

Showing results for tags 'scr'.



More search options

  • Search By Tags

    Type tags separated by commas.
  • Search By Author

Content Type


Forums

  • General Lounge
    • Announcements and Updates
    • Member Introductions
    • Help & FAQ
    • Post your Movie Requests
    • Ethical Hacking Tricks and Internet Tricks
  • Free Online Movies
    • HollyWood Movies
    • BollyWood Movies
    • Malayalam Movies
    • Tamil Movies
    • Telugu Movies
    • Other Movies
  • TV Shows
    • English TV Shows
  • Ebooks
    • Tips ,Tutorials and E-Books
  • Adult Section
    • XXX HD Videos
    • XXX Adult Movies
    • XXX VIDEOS
    • XXX PICTURES
    • XXX STORIES
    • XXX Comics and Magazine
  • Music Database
    • English Albums
    • English Collections
  • Premium Accounts And Premium Browser
    • Premium Account And Premium Browser
    • Free 18+ Site Premium Accounts
  • Games & SoftWare
    • PC Games
    • PC Softwares
    • Mac OSX Applications
  • Mobile Zone
    • Android Applications
    • Android Games
    • Android Themes / Live Wallpapers
    • Iphone Applications
  • Gallery
    • Actress Gallery
    • HD Wallpapers
  • WebMaster Source
    • Vbulletin
    • Wordpress
    • Invision Power Board
    • PHP / HTML scripts

Categories

  • Records

Calendars

  • Community Calendar

Categories

  • Files

Categories

  • Videos
  • Movies

Found 33 results

  1. Godha (2017) Download Malayalam Movie DeSi SCR x264 AAC 700MB ZippyMovieZ ExCluSivE Screenshots Download Links ~Extreme Seeding Started~ Please click 'Thanks' as a token of appreciation of our effort. [ZippyMovieZ.ME] Godha (2017) Malayalam DeSi SCR x264 AAC 700MB ZippyMovieZ ExCluSivE.torrent Magnet Link
  2. Half Girlfriend (2017) Download Hindi Movie DeSi SCR x264 AAC 700MB ZippyMovieZ ExCluSivE SCREENSHOTS Download Links ~Extreme Seeding Started~ Please click 'Thanks' as a token of appreciation of our effort. .Audio Track Only
  3. Lens (2017) Download Tamil Movie DeSi SCR x264 AAC 700MB ZippyMovieZ ExCluSivE Screenshots Download Links Audio 8/10 Video 7/10 ~Extreme Seeding Started~ Please click 'Thanks' as a token of appreciation of our effort. [ZippyMovieZ.ME] Lens (2017) Tamil DeSi SCR x264 AAC 700MB ZippyMovieZ ExCluSivE.torrent Magnet Link
  4. Radha (2017) Download Telugu Movie DeSi SCR x264 AAC 700MB ZippyMovieZ ExCluSivE SCREENSHOTS Download Links ~Extreme Seeding Started~ Please click 'Thanks' as a token of appreciation of our effort. . [ZippyMovieZ.ME] Radha (2017) Download Telugu Movie DeSi SCR x264 AAC 700MB ZippyMovieZ ExCluSivE.torrent Magnet Link
  5. Sarkar 3 (2017) Download Hindi Movie DeSi SCR x264 AAC 700MB ZippyMovieZ ExCluSivE SCREENSHOTS Download Links ~Extreme Seeding Started~ Please click 'Thanks' as a token of appreciation of our effort. . [ZippyMovieZ.ME] Sarkar 3 (2017) Hindi DeSi SCR x264 AAC 700MB ZippyMovieZ ExCluSivE.torrent Magnet Link
  6. Lakshyam (2017) Download Malayalam Movie DeSi SCR x264 AAC 700MB ZippyMovieZ ExCluSivE SCREENSHOTS Download Links ~Extreme Seeding Started~ Please click 'Thanks' as a token of appreciation of our effort. [ZippyMovieZ.CO] Lakshyam (2017) Malayalam DeSi SCR x264 AAC 700MB ZippyMovieZ ExCluSivE.torrent Magnet Link
  7. CIA: Comrade in America (2017) Download Malayalam Movie DeSi SCR x264 AAC 700MB ZippyMovieZ ExCluSivE Screenshots Download Links ~Extreme Seeding Started~ Please click 'Thanks' as a token of appreciation of our effort. [ZippyMovieZ.CO] CIA Comrade in America (2017) Malayalam DESI SCR x264 AAC 700MB ZippyMovieZ ExCluSivE.torrent Magnet Link
  8. First On Net Veeram (2017) Download Malayalam Movie DeSi SCR x264 AAC 700MB ZippyMovieZ ExCluSivE SCREENSHOTS Download Links ~Extreme Seeding Started~ Please click 'Thanks' as a token of appreciation of our effort. [ZippyMovieZ.CO] Veeram (2017) Malayalam DeSi SCR x264 AAC 700MB ZippyMovieZ ExCluSivE.torrent Magnet Link
  9. Sathya (2017) Download Malayalam Movie DVDRiP x264 AAC 700MB ZippyMovieZ ExCluSivE Screenshots Download Links ~Extreme Seeding Started~ Please click 'Thanks' as a token of appreciation of our effort. [ZippyMovieZ.ME] Sathya (2017) Malayalam DVDRiP x264 AAC 700MB ZippyMovieZ ExCluSivE.torrent Magnet Link
  10. Baahubali 2: The Conclusion (2017) Download Malayalam Movie DeSi SCR x264 AAC 700MB ZippyMovieZ ExCluSivE Info Screenshots Download Links ~Extreme Seeding Started~ Please click 'Thanks' as a token of appreciation of our effort. [ZippyMovieZ.CO] Baahubali 2 The Conclusion (2017) Malayalam DeSi SCR x264 AAC 700MB ZippyMovieZ ExCluSivE.torrent Magnet Link
  11. Baahubali 2: The Conclusion (2017) Download Tamil Movie DeSi SCR x264 AAC 700MB free download no premium required Video ID : 1 Format : AVC Format/Info : Advanced Video Codec Format profile : [email protected] Format settings, CABAC : Yes Format settings, ReFrames : 4 frames Codec ID : V_MPEG4/ISO/AVC Duration : 2 h 37 min Bit rate : 543 kb/s Width : 640 pixels Height : 288 pixels Display aspect ratio : 2.222 Frame rate mode : Constant Frame rate : 29.970 (29970/1000) FPS Original frame rate : 29.970 (30000/1001) FPS Color space : YUV Chroma subsampling : 4:2:0 Bit depth : 8 bits Scan type : Progressive Bits/(Pixel*Frame) : 0.098 Stream size : 612 MiB (88%) free download no premium required Download link Baahubali 2: The Conclusion (2017) Download Tamil Movie DeSi SCR x264 AAC 700MB .mkv - 695.01 MB
  12. Baahubali 2: The Conclusion (2017) Download Telugu Movie DeSi SCR x264 AAC 700MB ZippyMovieZ ExCluSivE Info Screenshots Download Links ~Extreme Seeding Started~ Please click 'Thanks' as a token of appreciation of our effort. [ZippyMovieZ.CO] Baahubali 2 The Conclusion (2017) Telugu DeSi SCR x264 AAC 700MB ZippyMovieZ ExCluSivE.torrent Magnet Link
  13. Baahubali 2: The Conclusion (2017) Download Tamil Movie DeSi SCR x264 AAC 700MB ZippyMovieZ ExCluSivE Info Screenshots Download Links Audio 8/10 Video 7/10 ~Extreme Seeding Started~ Please click 'Thanks' as a token of appreciation of our effort. [ZippyMovieZ.CO] Baahubali 2 The Conclusion (2017) Tamil DeSi SCR x264 AAC 700MB ZippyMovieZ ExCluSivE.torrent Magnet Link
  14. Sakhavu (2017) Download Malayalam Movie DeSi SCR x264 AAC 700MB ZippyMovieZ ExCluSivE First On Net Info Screenshots Download Links Audio 8/10 Video 7/10 ~Extreme Seeding Started~ Please click 'Thanks' as a token of appreciation of our effort. [ZippyMovieZ.CO] Sakhavu (2017) Malayalam DeSi SCR x264 AAC 700MB ZippyMovieZ ExCluSivE.torrent Magnet Link
  15. Take off (2017) Download Malayalam Movie DeSi SCR x264 AAC 700MB ZippyMovieZ ExCluSivE Screenshots Download Links ~Extreme Seeding Started~ Please click 'Thanks' as a token of appreciation of our effort. [ZippyMovieZ.CO] Take off (2017) Malayalam DeSi SCR x264 AAC 700MB ZippyMovieZ ExCluSivE.torrent Magnet Link
  16. Cheliya (2017) Download Telugu Movie DeSi SCR x264 AAC 700MB ZippyMovieZ ExCluSivE SCREENSHOTS Download Links ~Extreme Seeding Started~ Please click 'Thanks' as a token of appreciation of our effort. . [ZippyMovieZ.Co] Cheliya (2017) Telugu DeSi SCR x264 AAC 700MB ZippyMovieZ ExCluSivE.torrent Magnet Link
  17. Honey Bee 2 [2017] Download Malayalam Movie DVDRiP x264 AAC 700MB ZippyMovieZ ExCluSivE Screenshots Download Links ~Extreme Seeding Started~ Please click 'Thanks' as a token of appreciation of our effort. [ZippyMovieZ.ME] Honey Bee 2 [2017] Malayalam DVDRiP x264 AAC 700MB ZippyMovieZ ExCluSivE.torrent Magnet Link
  18. Ezra [2017] Download Malayalam Movie DVDRip x264 AAC 700MB ZippyMovieZ ExCluSivE Info Screenshots Download Links ~Extreme Seeding Started~ Please click 'Thanks' as a token of appreciation of our effort. [ZippyMovieZ.CO] Ezra [2017] Malayalam DVDRip x264 AAC 700MB ZippyMovieZ ExCluSivE.torrent Magnet Link
  19. Alamara (2017) Download Malayalam Movie DeSi SCR x264 AAC 700MB ZippyMovieZ ExCluSivE Info Screenshots Download Links Audio 8/10 Video 7/10 ~Extreme Seeding Started~ Please click 'Thanks' as a token of appreciation of our effort. [ZippyMovieZ.CO] Alamara (2017) Malayalam DeSi SCR x264 AAC 700MB ZippyMovieZ ExCluSivE.torrent Magnet Link
  20. Fukri [2017] Download Malayalam Movie DVDRiP x264 AAC 840MB ZippyMovieZ ExCluSivE Info Screenshots Download Links ~Extreme Seeding Started~ Please click 'Thanks' as a token of appreciation of our effort. [ZippyMovieZ.ME] Fukri [2017] Malayalam DVDRiP x264 AAC 860MB ZippyMovieZ ExCluSivE.torrent Magnet Link It's A Team ZERG Release Always Seed After Complete Enjoy. Xtreme High Speed Seeding
  21. Jomonte Suvisheshangal [2017] Download Malayalam Movie 720P DESI SCR x264 AAC 1GB ZippyMovieZ ExCluSivE First on Net Screenshots Download Links Audio 8/10 Video 7/10 ~Extreme Seeding Started~ Please click 'Thanks' as a token of appreciation of our effort. [ZippyMovieZ.US] Jomonte Suvisheshangal [2017] Malayalam 720P DESI SCR x264 AAC 1GB ZippyMovieZ ExCluSivE.torrent Magnet Link It's A Team ZERG Release Always Seed After Complete Enjoy. Xtreme High Speed Seeding If you like this release please donate something to us Buy untouched Source PM to @Mr.Pink Special thx to LMO 4 Source
  22. Commando 2 (2017) Download Telugu Movie DeSI SCR x264 AAC 560MB ZippyMovieZ ExCluSivE SCREENSHOTS Download Links ~Extreme Seeding Started~ Please click 'Thanks' as a token of appreciation of our effort. . [ZippyMovieZ.US] Commando 2 (2017) Telugu DeSI SCR x264 AAC 560MB ZippyMovieZ ExCluSivE.torrent Magnet Link It's A Team ZERG Release Always Seed After Complete Enjoy. Xtreme High Speed Seeding
  23. Yaman (2017) Telugu DeSi SCR x264 AAC 700MB ZippyMovieZ Quote Format : Matroska Format version : Version 2 File size : 696 MiB Duration : 2h 26mn Overall bit rate : 666 Kbps Encoded date : UTC 2017-02-27 08:18:52 Writing application : mkvmerge v8.5.2 ('Crosses') 32bit Writing library : libebml v1.3.3 + libmatroska v1.4.4 Video ID : 1 Format : AVC Format/Info : Advanced Video Codec Format profile : [email protected] Format settings, CABAC : Yes Format settings, ReFrames : 4 frames Codec ID : V_MPEG4/ISO/AVC Duration : 2h 26mn Bit rate : 593 Kbps Width : 608 pixels Height : 256 pixels Display aspect ratio : 2.40:1 Frame rate mode : Constant Frame rate : 25.000 fps Color space : YUV Chroma subsampling : 4:2:0 Bit depth : 8 bits Scan type : Progressive Bits/(Pixel*Frame) : 0.152 Stream size : 619 MiB (89%) SCREENSHOTS https://www.imagebun.us/image/81YQE https://www.imagebun.us/image/811Y7 https://www.imagebun.us/image/813qR https://www.imagebun.us/image/81SWu Download Links
  24. Yaman (2017) Download Telugu Movie DeSi SCR x264 AAC 700MB ZippyMovieZ ExCluSivE Screenshots Download Links ~Extreme Seeding Started~ Please click 'Thanks' as a token of appreciation of our effort. [ZippyMovieZ.US] Yaman (2017) Telugu DeSi SCR x264 AAC 700MB ZippyMovieZ ExCluSivE.torrent Magnet Link